#TITLE:Nothing's Over;
#SUBTITLE:Expi3nze;
#ARTIST:Infinite;
#TITLETRANSLIT:;
#SUBTITLETRANSLIT:;
#ARTISTTRANSLIT:;
#CREDIT:;
#BANNER:bn.png;
#BACKGROUND:bg.png;
#LYRICSPATH:;
#CDTITLE:cdtitle.png;
#MUSIC:Nothing's Over.mp3;
#OFFSET:0.000;
#SAMPLESTART:45.469;
#SAMPLELENGTH:12.000;
#SELECTABLE:YES;
#BPMS:0.000=128.005,1.000=127.999,8.000=128.005,9.000=127.999,16.000=128.005,17.000=127.999,24.000=128.005,25.000=127.999,32.000=64.001,32.333=256.023,33.000=128.005,34.000=127.999,41.000=128.005,42.000=127.999,49.000=128.005,50.000=127.999,57.000=128.005,58.000=127.999,65.000=128.005,66.000=127.999,73.000=128.005,74.000=127.999,81.000=128.005,82.000=127.999,89.000=128.005,90.000=127.999,97.000=128.005,98.000=127.999,106.000=128.005,107.000=127.999,114.000=128.005,115.000=127.999,122.000=128.005,123.000=127.999,130.000=128.005,131.000=127.999,138.000=128.005,139.000=127.999,146.000=128.005,147.000=127.999,154.000=128.005,155.000=127.999,162.000=128.005,163.000=127.999,170.000=128.005,171.000=127.999,178.000=128.005,179.000=127.999,186.000=128.005,187.000=127.999,194.000=128.005,195.000=127.999,203.000=128.005,204.000=127.999,211.000=128.005,212.000=127.999,219.000=128.005,220.000=127.999,227.000=128.005,228.000=127.999,235.000=128.005,236.000=127.999,243.000=128.005,244.000=127.999,251.000=128.005,252.000=127.999,256.000=64.001,256.333=256.023,257.000=127.999,259.000=128.005,260.000=127.999,267.000=128.005,268.000=127.999,275.000=128.005,276.000=127.999,283.000=128.005,284.000=127.999,291.000=128.005,292.000=127.999;
#STOPS:;
#BGCHANGES:;
// cache tags:
#FIRSTBEAT:1.000;
#LASTBEAT:289.500;
#SONGFILENAME:Songs/SDO pack 1/Nothing's Over (Infinite)/Nothing's Over.sm;
#HASMUSIC:1;
#HASBANNER:1;
#MUSICLENGTH:137.773;
// end cache tags

//---------------dance-single - ----------------
#NOTES:
     dance-single:
     :
     Hard:
     16:
     1.000,1.000,1.000,0.661,0.628,677.000,262.000,91.000,0.000,133.000:
0000
0000
0000
0000
2000
0000
3000
0010
1100
0000
0010
0000
0000
0000
1001
0000
,
1001
0000
0000
0000
0002
0000
0003
0010
1001
0000
1001
0000
0000
0000
1100
0000
,
1100
0000
0000
0000
0020
0000
0030
0100
1001
0000
1001
0000
0000
0000
0011
0000
,
0011
0000
0000
0000
2000
0000
3000
0010
1100
0000
0010
0000
0000
0000
0100
0000
,
1110
0000
0000
0000
0020
0000
0030
0100
0011
0000
1000
0000
0000
0000
0101
0000
,
0101
0000
0000
0000
0020
0000
0030
1000
0011
0000
0100
0000
0000
0000
1001
0000
,
1001
0000
0000
0000
2000
0000
3000
0010
1001
0000
1001
0000
0000
0000
0110
0000
,
0110
0000
0000
0000
0020
0000
0030
1000
0011
0000
0011
0000
0100
0000
0110
0000
,
1011
0000
0000
0000
1011
0000
0000
0000
0001
0000
0010
0001
1000
0100
0010
0001
,
1100
0000
0001
0000
1000
0000
0001
0000
1100
0000
0001
0010
0001
1000
0100
0010
,
1001
0000
1001
0000
0001
0000
1000
0000
0011
0000
1000
0100
0010
0100
0001
0010
,
1001
0000
1001
0000
0001
0000
1000
0000
1001
0000
0001
0010
0001
0010
0001
0001
,
1100
0000
0001
0000
2000
0000
0010
0000
0110
0000
0010
0000
0001
0010
0100
0001
,
0010
0100
0001
0000
3011
0000
1000
0000
0011
0000
1000
1000
0010
0100
0001
0001
,
1100
0000
0001
0000
1001
0000
1001
0000
0001
0000
1000
0100
0010
0001
1000
1000
,
0011
0000
1100
0000
0011
0000
1000
0000
1001
0000
0001
0000
0010
0010
1000
1000
,
0001
0001
0100
0000
1101
0000
0001
0000
2000
0000
0100
0100
3021
0001
1000
0001
,
1031
0000
1001
0000
1001
0000
0001
0000
1100
0000
1000
0100
0010
0010
0001
0001
,
1100
0000
1100
0000
0012
0000
1000
0000
1100
0000
0010
0010
0100
0010
0100
0010
,
1100
0000
1100
0000
1103
0000
0001
0000
0101
0000
1000
0100
0010
1000
0100
1000
,
1011
0000
0011
0000
2100
0000
0010
0000
3021
0000
1000
1000
0201
1000
0001
1300
,
1002
0000
1000
0000
1100
0000
0000
0000
0133
0000
1000
0100
0010
0001
0100
0010
,
1001
0000
1001
0000
0001
0000
0100
0000
2010
0000
0100
0010
0001
0100
0010
0001
,
0102
0000
0110
0000
0013
0000
0100
0000
3011
0000
0001
0001
1000
1000
0010
0010
,
0001
0001
1010
1011
2011
0000
0000
0000
3020
0000
1000
1000
0132
1000
0010
0010
,
0203
0000
0001
0000
2311
0000
0001
0000
3020
0000
1000
1000
0132
1000
0010
0010
,
0203
0000
0010
0000
2311
0000
0001
0000
3020
0000
1000
1000
0132
1000
0010
0010
,
0203
0000
0001
0000
2311
0000
0001
0000
3020
0000
1000
1000
0132
1000
0010
0010
,
0203
0000
0010
0000
2311
0000
0001
0000
3020
0000
1000
1000
0132
1000
0010
0010
,
0203
0000
0001
0000
0311
0000
1000
0000
0011
0000
1000
0100
0010
1000
0100
1000
,
1001
0000
1001
0000
2002
0000
0000
0000
0110
0000
0013
0010
3201
0010
0001
1000
,
0011
0000
1001
0300
0022
0000
0000
0000
1100
0030
1000
0100
0013
1000
0100
0011
,
1011
0000
1000
0000
0011
0000
1000
0000
0020
0000
1032
1000
0013
1000
1002
0010
,
1003
0011
0011
1000
0011
0110
1100
0011
,
0011
0000
1000
0000
2010
0000
0110
0000
0010
0000
0102
0100
0013
0100
0012
0000
,
0113
0000
0010
0000
0100
0000
0001
0000
0110
0000
0001
0010
3001
1000
0010
0001
,
1100
0000
0001
0011
1101
0000
0020
0000
1100
0000
1032
0100
0010
1000
0103
1000
,
0011
0000
1100
0000
0011
0000
1100
0000
0011
0000
1000
0100
0010
0001
1000
0010
,
1001
1001
2002
0100
0113
0100
3020
0100
,
0130
0000
0101
0000
0202
0000
0000
0000
0310
0000
0010
0000
1203
1000
1000
0001
,
0301
0000
1100
0000
1101
0000
0000
0000
0011
0000
1100
0001
0001
0010
1101
0001
,
1101
0000
0100
0000
0010
0000
0000
0000
1100
0000
1100
0001
0001
1000
1101
1000
,
0101
0000
0001
0000
2001
0000
0000
0000
0010
0000
0010
0010
0100
0010
0100
0001
,
0100
0000
0010
0000
3012
0000
0000
0000
0010
0000
1000
0100
0010
1000
0100
0010
,
1000
0000
1100
0000
0103
0000
0010
0000
0011
0000
1100
1100
0011
1100
0011
0011
,
0011
0000
0000
0000
0010
0000
0100
0010
1000
0000
0011
1100
0011
1100
0011
1100
,
0011
0000
0000
0000
0010
0000
0100
0010
0110
0110
1001
1001
0011
1001
1001
0000
,
1001
0000
0000
0000
0010
1000
0100
0000
1010
1010
1001
0011
1100
1100
0011
0000
,
0011
0000
0000
0000
0210
0000
0010
0000
0011
0011
1000
0011
0011
0001
0010
0001
,
0011
0011
1000
0000
0321
0000
0001
0000
1100
1100
0001
1100
1100
1000
0100
1000
,
1100
1100
0001
0000
2031
0000
0001
0000
0110
0110
0001
0110
0110
0100
0010
0110
,
0110
0000
0010
0000
3221
0001
1000
0001
1000
1000
0001
0001
0001
0000
1000
0000
,
0001
1001
1331
0000
1000
0020
1031
0020
,
1031
0000
1000
0000
0001
0000
0000
0000
0010
0000
1000
0010
1001
0000
1000
0010
,
1001
0000
1000
0010
1001
0000
0000
0000
1001
0000
0002
0000
1103
0000
0002
0000
,
1103
0000
1000
0000
0001
0000
0100
1000
0011
0000
0100
1000
0011
0000
0100
1000
,
0011
1100
0011
1100
0011
0002
1103
0002
,
1103
0000
0001
0000
1100
0000
0001
0000
1001
0000
1000
1000
0011
0000
1000
1000
,
0011
0000
1000
1000
0012
0000
0000
0000
1010
0000
1003
1000
0011
0000
1000
1000
,
0011
0000
1000
0000
0220
0000
0001
0000
0001
0000
1000
0001
1000
0000
0001
0001
,
0001
0000
1000
0000
1331
0000
0000
0000
0020
0000
1032
1000
0013
1000
1002
0010
,
1003
0011
0011
1000
0011
0110
1100
0011
,
0011
0000
1000
0000
2010
0000
0110
0000
0010
0000
0102
0100
0013
0100
0012
0000
,
0113
0000
0010
0000
0100
0000
0001
0000
0110
0000
0001
0010
3001
1000
0010
0001
,
1100
0000
0000
0000
1101
0000
0020
0000
1100
0000
1032
0100
0010
1000
0103
1000
,
0011
0000
1100
0000
0011
0000
1100
0000
0011
0000
1000
0100
0010
0001
1000
0010
,
1001
1001
2002
0100
0113
0100
3020
0100
,
0130
0000
0101
0000
0202
0000
0000
0000
0310
0000
0010
0000
1203
1000
1000
0001
,
0301
1100
1200
0000
0000
0000
0000
0000
,
0000
0302
0000
0000
,
0000
2103
0000
0000
,
0000
3021
0000
0000
,
0000
0000
0000
0030
0000
0000
0000
0000
,
0000
0000
0000
0000
;
